Gspot en Linux

Gspot es un programa para Windows con el que obtener información sobre un determinado vídeo de nuestro PC. Desde la resolución o el bitrate al codec utilizado, incluida la dirección desde la que descargar este codec si no se encuentra en nuestro PC.

Existe una alternativa llamada MediaInfo que además de ser GPL cuenta con versiones tanto para Windows como para Linux, aunque la versión de Linux aún no cuenta con interfaz gráfica.

Comentarios
  1. Si no tiene GUI, para que usarlo? se puede usar igual:
    ffmpeg -i
    y no necesitamos ningun programa extra.

    Responder

  2. MediaInfo da bastante más información y creo que soporta más formatos.

    Un ejemplo con un video cualquiera. Con ffmpeg -i:
    Input #0, avi, from 'a.divx':
    Duration: 00:14:39.0, start: 0.000000, bitrate: 667 kb/s
    Stream #0.0: Video: mpeg4, yuv420p, 512x280, 25.00 fps(r)
    Stream #0.1: Audio: mp3, 48000 Hz, stereo, 32 kb/s

    Con MediaInfo:
    General #0
    Complete name : a.divx
    Format : AVI
    Format/Info : Audio Video Interleave
    Format/Family : RIFF
    File size : 70.0 MiB
    PlayTime : 14mn 39s
    Bit rate : 659 Kbps
    StreamSize : 1.81 MiB
    Writing application : VirtualDubMod 1.5.10.1 (build 2439/release)
    Writing library : VirtualDubMod build 2439/release
    Video #0
    Codec : XviD
    Codec/Family : MPEG-4
    Codec/Info : XviD project
    Codec settings/Packe : No
    Codec settings/BVOP : Yes
    Codec settings/QPel : No
    Codec settings/GMC : 0
    Codec settings/Matri : Default
    PlayTime : 14mn 39s
    Bit rate : 523 Kbps
    Width : 512 pixels
    Height : 280 pixels
    Aspect ratio : 16/9
    Frame rate : 25.000 fps
    Resolution : 8 bits
    Chroma : 4:2:0
    Interlacement : Progressive
    Bits/(Pixel*Frame) : 0.144
    StreamSize : 54.9 MiB
    Writing library : XviD0037
    Audio #0
    Codec : MPEG-1 Audio layer 3
    Codec profile : Dual mono
    PlayTime : 14mn 39s
    Bit rate : 127 Kbps
    Bit rate mode : VBR
    Channel(s) : 2 channels
    Sampling rate : 48 KHz
    Resolution : 16 bits
    StreamSize : 13.3 MiB
    Writing library : LAME3.96r
    Encoding settings : ABR

    Responder

  3. Habria que probar con wine a ver si funciona.

    Responder

  4. […] instalar lo justo y necesario y en sus versiones más recientes, basándome en los datos de GSpot, MediaInfo o […]

    Responder

  5. […] aunque ya hablamos muy de pasada en su día de esta aplicación, nunca está de más recordar esta herramienta de código abierto (GPL o LGPL), […]

    Responder

  6. […] aunque ya hablamos muy de pasada en su día de esta aplicación, nunca está de más recordar esta herramienta de código abierto (GPL o LGPL), […]

    Responder

Deja un comentario